Ffmpeg Keyframe

123), so the seeking may not be as accurate as expected. The syntax to crop a vide ofile is given below: ffmpeg -i input. 1 added some tools for creating animations which are really slick. 264, IP67-rated Waterproof and weatherproof - 20ft from sensor to main unit - Wide View Angle: Horizontal 108°, Vertical 57° - Windows/Mac OS compatible software - Free Apps for iOS and Android, view and. FFmpeg and its photosensitivity filter are not making any medical claims. ffmpeg's source code is distributed from a Subversion repository. FFmpeg has added a realtime bright flash removal filter to libavfilter. It is Free software distributed under the GNU General Public License (GPL). 0 : stereo Input #0, wav, from 'D:\autoencode35ta_. ffmpeg-ss 519 -t 102 -i myinfile. Continue reading… One year with the Olympus OM-D E-M5. A greater improvement was to put the -ss option in front of the -i option since that makes FFmpeg seeking use input as keyframes not decoding frame-by-frame. See FFMPEG docs for more info. com Forum - ffmpeg: gov is stored together with every keyframe , which is not allowed in. The first frame in a scene is almost invariably a keyframe, but beware - far from every keyframe is a scenechange! Most encoders insert a keyframe at least once every 250-300 frames, even if there hasn't been a scenechange. Duplicated keyframe - Compression for video streaming, the web and other uses is the focus of this Cow forum. As of FFmpeg 2. MP4Tools is a collection of simple free tools to join and split MP4 files. Can painlessly be skipped. My protocol is HLS. † Digital video compression techniques involve compression of frames: I-frame A full 'Intra-coded picture' P-frame 'Predicted' from previous frame(s)'s picture B-frame 'Bi-predictive' or 'Bidirectional' calculated from surrounding frames's pictures. Extract particular frames from a video without loading the whole video. not just stream copying), -ss is now also "frame-accurate" even when used as an input option. but I resolved finaly the problem with -rtsp_transport tcp for ffmpeg but it must be right after "ffmpeg" command, if it is later, after for example stream address, the rtsp_transport is ignored. (In order to save space) This is my question: When I convert videos with ffmpeg through console, I can manually specify keyframe distance, default parameter -g and its set to 12. h264 -s 1280x720 -filter:v yadif -pix_fmt yuv420p -vcodec libx264 -preset slow -profile:v high -level:v 4. The key frame is usually a whole picture and the rest are decoded as motion or small changes. That is straightforward enough, as long as you’re willing to re-encode the whole file. if use add_keyframe_index option, add a mark flag at. Active 21 days ago. From CS3, Photoshop allows you to create movies/animations. ffmpeg's source code is distributed from a Subversion repository. c itself) have caused some strategies to change. This article describes how to produce MP4 and WebM video files compatible with Radiant Media Player and HTML5 video in general. mp4" -c copy "d:\media\sample_cut. FFmpeg is an open source project that develops libraries and programs for handling multimedia data. The | symbol takes the data from raspivid and passes it to ffmpeg. Rigaya has x86 version but their software is not transcoding audio from avisynth so Ffmpeg do that trick and will be nice to use. Nástroje pro CLI ffmpeg překódování multimediálních souborů ffserver streamovací server ffplay jednoduchý přehrávač založený na SDL ffprobe zobrazí informace o multimediálních souborech Příklady ffmpeg -formats ffmpeg -codecs ffmpeg -filters ffmpeg -protocols ffplay clock. 1, when transcoding with ffmpeg (i. but whenever I do any of this > transcoding with ffmpeg, I get the warning "[mpeg2video @ 0x1a2e3360] > warning: first frame is no keyframe" and the audio is 6 frames or so early > because the fms server. $ ffmpeg -i YosemiteHDII. use data partitioning -gray EDV. The packet contains a keyframe. jpg, thumb_002. The current keyframe frequency is 8. FFmpeg and its photosensitivity filter are not making any medical claims. Built from the ground up, and focusing on the expanded needs of animators in production, Keyframe Pro is a powerful addition to any animator’s toolkit. -arnr-strength. # SOME DESCRIPTIVE TITLE # Copyright (C) YEAR Free Software Foundation, Inc. /200k_scenecut. * 'timestamp' in 'stream_index'. Note: Keyframe Pro requires ffmpeg for export. Note that forcing too many keyframes is very harmful for the lookahead algorithms of certain encoders: using fixed-GOP options or similar would be more efficient. 00, bitrate: 1411 kb/s Stream #0:0: Audio: pcm_s16le ([1][0][0][0] / 0x0001), 44100 Hz, stereo, s16, 1411 kb/s [graph 0 input from stream 0:0 @ 0225F060] tb:1/44100 samplefmt:s16 samplerate:44100 chlayout:0x3 [auto. Like Suslik said, the 0 setting tells it to use the default keyframe interval, which is usually if not always 250 frames (regardless of your FPS). webm -vf select='gt(scene\,0. ffmpeg -i video. This very short commandline lets ffmpeg copy everything inside “input. I am trying to play mpegts udp streams with h264 encoded video on my raspberry pi 2 which I send to it using ffmpeg on my computer. You can set the keyframe encoding rate simply by using the command line switch -g. flv insert tags for php streaming flvtool2 -U video03_k. So getting a key frame allows a confused decoder to start over. I tried to trim a video in FFmpeg using this command: ffmpeg -ss 00:20:48. flac -filter_complex "[1:a]asplit=2[sc][mix];[0:a][sc]sidechaincompress[compr];[compr][mix]amerge" sidechaingate A sidechain gate acts. mov -r 1/10 -s 320x240 thumb_%03d. flags=0 (meaning not a keyframe) 2) Seek is performed, avcodec_decode_video2() must be fed several packets (57 in my test with ffmpeg command line, with #55 being the only one with. Rule of thumb is anything intended is for television is interlace, any other delivery format is most likely progressive. 7:45 PM Bad Bad video settings Please use a keyframe frequency of four seconds or less. It could, of course, also be possible to sample the video at regular intervals, but the keyframes seem to work fine for my usage. mp4 - source video file. Intra-frame compressions reduce the file size of keyframes (also called I-frames) using the same techniques used on digital pictures and images. -g (FFmpeg) Keyframe interval, also known as GOP length. Right-click (Windows) or Control-click (Mac OS) the clip containing the keyframe properties you want to view. Always use a recent ffmpeg. Key Frame/Scene Change - ABR - Alt 2-force_key_frames expr:gte(t,n_forced*3) -keyint_min 25 -sc_threshold 40 Force Keyframe every 3 seconds Default Minimum Default Sensitivity 72 frames 72 frames 72 frames Regular Keyframes, and keyframes at scene changes. i tried to insert key-frame every 5sec with command below. This article describes how to produce MP4 and WebM video files compatible with Radiant Media Player and HTML5 video in general. However, the Ffmpeg wiki articles like to be on the encyclopedic side of things, trying to explain everything. I'm completely confused on where I need to make the keyframe setting change within Wirecast or if at all?. FFmpegは、動画形式変換、動画ダウンロードなどで大変助かります。 しかし、パラメータをたまに忘れてしまうのでここにばっと書いていきます。 コーデックの変換 input. Besides, an alternative is also introduced to make H. Since MPlayer can only seek to the next keyframe this may be inexact. As the documentation explains, you can issue an expression to force a keyframe at the required interval. Would the following command give me thumbnails of the closest keyframes to 10 and 20 secs?? ffmpeg -ss 00:00:10 -i input. Sets the destination address for datagrams sent by the -udp-master. Active 21 days ago. 264 encoding. 追記:-sc_threshold 0 がなかったので、上記コマンドに追加しました。 といったように、9. The FFmpeg codec neutral setting for a minimum keyframe distance is “-keyint_min”. c: Lines: 2035: 2752: 73. Video is coded by the H264 codec and send to localhost UDP. ffmpeg -i input. So a complete picture will be recorded every 50 frames, while the ones in between will be compressed. x, you must require 'rubygems' on the top of code lines. It’s rare for the key frame to be placed at the exact spot I would want to make a cut, so the section of the video around the cut would need to be re-encoded. 0 (build 12602) with JW Premium. From CS3, Photoshop allows you to create movies/animations. Hey guys, I have the following problem. Hope someone finds this helpful, and if there is an even better way to achieve the same results (which I’m sure there is), do let me know in the comments. BUT, with one command, you can utilize this same tool to extract snippets from your large files for editing/processing later. -cm --chunk_method Determine way in which chunks made for encoding. 因为FFmpeg更新的比较快,API也会跟着有所变动,所以声明一下,本文使用的FFmpeg版本为V3. I've been in the streaming media industry since 2008 and have seen a lot of misinformation regarding both FFmpeg and libx264. Your code tells ffmpeg to generate a H264 video stream using the x264 encoder, and the options below are used by the encoder to decide keyframe placement. This works because ffmpeg will first seek by keyframes, until it reaches 00:02:30. 5。 1 片片碎 阅读 18,356 评论 10 赞 20. Meanwhile, FFmpeg supports libwebp directly. For example: Or create an animated gif with ImageMagick, using your chosen frame rate as the setting for the -delay option: convert -delay 10 -loop 0 *. webm -vf select='gt(scene\,0. 000 -vcodec libx264 -crf 25 -vf scale=2560:-1 -acodec aac output. This very short commandline lets ffmpeg copy everything inside “input. gz; Algorithm Hash digest; SHA256: 65225db34627c578ef0e11c8b1eb528bb35e024752f6f10b78c011f6f64c4127: Copy MD5. The syntax to crop a vide ofile is given below: ffmpeg -i input. Note that this filter is not FDA approved, nor are we medical professionals. 5, then ffmpeg will wait until second 2 before it can start cutting. ffmpeg -i in. r=edwin, a. __group__ ticket summary component version type severity owner status created _changetime _description _reporter Features paradize Release 4 DVDNav current time Demuxers master gi. high profile 8x8 transform (H. -force_key_frames timestamps force key frames at specified timestamps-hwaccel hwaccel name use HW accelerated decoding-hwaccel_device select a device for HW accelerationdevicename-vc channel deprecated, use -channel-tvstd standard deprecated, use -standard-vbsf video bitstream_filters deprecated. -x264opts no-scenecut will force keyframes to be created per the GOP value that FFmpeg uses. 5 is generally a good choice. The recommend combination is avi/mjpeg. 4)',scale=160:120,tile -frames:v 1 Yosemite_preview. Hi, Is there a way to protect the content from being accessed by unauthorized people?. ffmpeg -i sample. 1) Constant frame rate. It is Free software distributed under the GNU General Public License (GPL). __group__ ticket summary component version type severity owner status created _changetime _description _reporter Audio: ALSA / PulseAudio 5098 PulseAudio: set all relevant playback stream properties Audio: ALSA / PulseAudio master git enhancement normal Rémi Denis-Courmont new 2011-07-20T18:04:53+02:00 2017-01-27T12:38:58+01:00 Mostly meta-data about the input stream. Nástroje pro CLI ffmpeg překódování multimediálních souborů ffserver streamovací server ffplay jednoduchý přehrávač založený na SDL ffprobe zobrazí informace o multimediálních souborech Příklady ffmpeg -formats ffmpeg -codecs ffmpeg -filters ffmpeg -protocols ffplay clock. Use the commands below to extract all key frames (I, P, B) and their corresponding timecodes: On Linux, it can be an one-off accomplishment: ffmpeg -i yourvideo. ['segment', 'select', 'vs_ffms2', 'hybrid'] -tr --threshold PySceneDetect threshold for scene detection Default: 50 -s --scenes Path to file with scenes. Enter FFmpeg. 1 -aspect 16:9 -r 25 -trellis. 08 is out with nifty features like Interface Layouts, Multiple Audio Stream support, Cached data management and Zoombars in the Clip Monitor and Effects Panel but one may argue that the highlights of this release are stability and interface improvements. You didn't mention the video player you are using. When I first made this tutorial, all of my syncing code was pulled from ffplay. Keyframe Frequency. Orange83 87,402 views. ffmpeg -i 1. use loop filter -gmc E. ffmpeg - How can I cut starting precisely from a keyframe while codec copying?Split Up a Video Using FFMPEG through Scene DetectionHow do I extract the timestamps associated with frames ffmpeg extracts from a video with the -r option?Extract frames from video and set timestamp on imagesAdding overlay while doing precise cut in ffmpegFixing dropped frames in 3 different video resolution. Started work here, just haven't had time to debug why it is not recording. FFmpeg is a free software project that produces libraries and programs for handling multimedia data. 265 encoded video. 7 seconds latency. Note that ingestion errors can cause incorrect GOP (group of pictures) sizes. I tried to trim a video in FFmpeg using this command: ffmpeg -ss 00:20:48. Normally, x264 will only make a frame an IDR frame if it passes the threshold set by scenecut. by some streaming providers and is the default here. This works with the -vsync 1 option and ensures that keyframes are evenly spaced. Would the following command give me thumbnails of the closest keyframes to 10 and 20 secs?? ffmpeg -ss 00:00:10 -i input. I'm searching for a command line that produce the following output. error[?] variables will be set during encoding -naq E. For FFmpeg the license is set to LGPL2. So what's new and how to import keyframes from a previous auto mask motion analysis? Simple Motion Tracking and Moving Text Compositing First, we need a move clip where we want to track the movement of some region. Output seeking. Ffmpeg find keyframes Ffmpeg find keyframes. FFMPEG有几个最重要的结构体,包含了解协议,解封装,解码操作,此前已经进行过分析:FFMPEG中最关键的结构体之间的关系在此不再详述,其中AVFrame是包含码流参数较多的结构体。. Is there a FFMPEG command, where if we pass a video file, on every scene changes it should produce a keyframe for it. i'm working on ffmpeg with qsv (Xeon E3 1285). h264 it works fine when i use libx264(-c:v libx264) so that i can cut the. Ask Question Asked 6 months ago. Rule of thumb is anything intended is for television is interlace, any other delivery format is most likely progressive. - ffmpeg -t option can now be used for inputs, to limit the duration of data read from an input file - incomplete Voxware MetaSound decoder - read EXIF metadata from JPEG - DVB teletext decoder - phase filter ported from libmpcodecs - w3fdif filter - Opus support in Matroska. ffmpeg-ss 519 -t 102 -i myinfile. It is Free software distributed under the GNU General Public License (GPL). Windows has installed FFmpeg. wav': Duration: 00:00:04. Posted 06 April 2014. However, when cutting on the I-frame timestamp, ffmpeg skips the desired keyframe and leaves seconds of empty video until the next keyframe. It could, of course, also be possible to sample the video at regular intervals, but the keyframes seem to work fine for my usage. I'm completely confused on where I need to make the keyframe setting change within Wirecast or if at all?. ffmpeg -i input. Affects: Encoding, Video. The first frame in a scene is almost invariably a keyframe, but beware - far from every keyframe is a scenechange! Most encoders insert a keyframe at least once every 250-300 frames, even if there hasn't been a scenechange. one reference per partition, as opposed to one reference per macroblock dct8x8 E. ffmpeg -i {input_path} -c copy -map 0 -segment_time {duration} -reset_timestamps 1 -g {frame_group} -sc_threshold 0 -force_key_frames "expr:gte(t,n_forced*{duration})" -f segment "{output_path}-%d. Otherwise try to play with parameters like described here:. ffmpeg -vf select="eq(pict_type\,PICT_TYPE_I)" -i 2. I thought I'd share here some of the things I've learned when playing around with these tools. 所以根据-g=100来设置keyframe,则第100、200、300帧都被设置为keyframe; 1. That is straightforward enough, as long as you’re willing to re-encode the whole file. ffmpeg视频压缩速度_使用ffmpeg修改视频速度. Hey guys, I have the following problem. png This will create a mosaic composed of the first scenes, and it looks like this: Note that comparing scene against a value between 0. If the argument is source, ffmpeg will force a key frame if the current frame being encoded is marked as a key frame in its source. The job is created using the Live API. 0, avutil 50. For 240 frames this would be -g 240. mp3-i indicates the input-ab indicates the bit rate (in this example 160kb/sec)-vn means no video ouput-ac 2 means 2 channels-ar 44100 indicates the sampling frequency. Learn how to stream using an encoder with Live Control Room. read live streaming or file by sequence 2. ffmpeg key frame(i-frame) 얻는 방법 문의드립니다. It will then pull in the file "output. Add keyframe index metadata Used to facilitate seeking; particularly for HTTP pseudo streaming. if nrFramesTotal is positive it is the number of frames in the video, if it is negative then the video doesn't report the total number of frames and nrFramesTotal is estimated from the frame rate and duration of the video. Definition at line 1164 of file avcodec. Often ffmpeg will decode a frame ahead of time and then decode frames before it, this is called bi-directiona. The minimum distance is ignored unless it is the same as the GOP size, in which case key frames will always appear at a fixed interval. Affects: Encoding, Video. ffmpeg -i $1 -an -pass 1 -passlogfile $2 -vcodec. hevc -c copy -bsf:v trace_headers -f null - After each line containing key frame e. Driver version: 18. Sets the maximum interval between IDR-frames (aka keyframes) in x264's output. /key_frame_info. If you need additional help then send a message to the ffmpeg-user mailing list (see Mailing List FAQ first) or hang out in the #ffmpeg IRC channel on Freenode. will you please provide a simple way so i could start some development using ffmpeg lib with IDE like Eclipse or Netbeans. If there are keyframes at seconds 1, 2, and 3, but you want to cut at second 1. remove_extra Remove extradata from packets. Built from the ground up, and focusing on the expanded needs of animators in production, Keyframe Pro is a powerful addition to any animator's toolkit. mp4 -c copy -map 0 -segment_time 8 -f segment output%03d. Then the ffmpeg -force-key-frames over-rides key-init in the x264opts. Technologies, media streaming, thoughts, stories and ideas. webm -vf select='gt(scene\,0. Integer: 250. 在 2020-07-27 15:26:24,"Steven Liu" 写道: > 于2020年7月27日周一 下午2:22写道: >> >> From: hwren 于2020年7月27日周一 下午3:59写道: > >. From CS3, Photoshop allows you to create movies/animations. 5, then ffmpeg will wait until second 2 before it can start cutting. post314-g78a3d57 | about patchwork patch tracking system | version v2. Best to stay away from AVSEEK_FLAG_ANY for normal display purposes. In other point i will like now to use FFmpeg to do the encoding part from my Vegas rendering with frameserver, since Debug frameserver dont work with x64 codecs like Staxrip which has all Rigaya ASIC bundled inside. As you can see from ffmpeg's last line:: No such file or directory This was the problem – because bash splits unquoted parameter substitutions, the mkdir command in your script tried to make two directories, not the one which you intended. flv insert tags for php streaming flvtool2 -U video03_k. In reality, the subject is far more complex than I'm about to describe here. Try the new Live Control Room, which combines our classic desktop streaming tools with new and improved features. 6 (avformat 52. /200k_scenecut. Maya Scripting Evolved. org Git - ffmpeg. However, when cutting on the I-frame timestamp, ffmpeg skips the desired keyframe and leaves seconds of empty video until the next keyframe. - Reuben Jun 27 '17 at 21:57. Also, x264's scenecut or FFmpeg's sc_threhold detection interferes with the keyint values. ffmpeg -i 1. raw download clone embed report print C 3. not just stream copying), -ss is now also "frame-accurate" even when used as an input option. Like Suslik said, the 0 setting tells it to use the default keyframe interval, which is usually if not always 250 frames (regardless of your FPS). Can painlessly be skipped. A greater improvement was to put the -ss option in front of the -i option since that makes FFmpeg seeking use input as keyframes not decoding frame-by-frame. Often ffmpeg will decode a frame ahead of time and then decode frames before it, this is called bi-directiona. Key Frame Interval: An I-frame (keyframe) must be sent at least every 2 seconds Encoding Profile: Main (H. mp4 -acodec copy -vcodec copy OUTPUT. Ben via ffmpeg-user Thu, 20 Aug 2020 04:37:20 -0700 As far as I know there are two different possible parameters for the max keyframe interval: -g 30 OR -keyint=30 Whats the difference?. It is Free software distributed under the GNU General Public License (GPL). You can also use this to get more exhaustive list:. Is there a way I can get ffmpeg to "go back" to the nearest key. FFMpeg allows to crop a given media file in any dimension of our choice. Here, input. Hashes for ffmpeg-python-0. For this guide with use the latest FFmpeg version available as of June 2017 (N-86442-g8aa6060) on Ubuntu Desktop LTS 16. mp4 -pix_fmt yuv420p -vcodec libx264 -acodec libfaac -r 25 -profile:v baseline -b:v 2000k -maxrate 2500k -force_key_frames 50s -s 640x360 /tmp/newfile. 3 release branch, which was cut from master on 2020-06-08. We can use the copy function of FFMpeg: ffmpeg -i input. Therefore Avidemux uses x264. mp4 -c copy -map 0 -segment_time 8 -f segment output%03d. Let's see what makes Live Transcoder for Nimble Streamer differ from out-of-the-box FFmpeg and sometimes more efficient. jpg, thumb_001. m4a -i audio2. Every Time Keyframe represents a timestamp in the Replay itself. 265 encoded video. A key frame is a single frame, not a series of frames or files. flv” to our new MP4 file “output. if nrFramesTotal is positive it is the number of frames in the video, if it is negative then the video doesn't report the total number of frames and nrFramesTotal is estimated from the frame rate and duration of the video. 7:45 PM Bad Bad video settings Please use a keyframe frequency of four seconds or less. mp4 What I have noticed is that ffmpeg takes a lot of time to begin re-encoding, and then the re-encoding itself isn't the fastest either. jpg, thumb_001. Get the list of I-Frames in a video in FFMPEG / Python. Like Suslik said, the 0 setting tells it to use the default keyframe interval, which is usually if not always 250 frames (regardless of your FPS). I'm on Win 10 and have GeForce RTX2080. Description ffmpeg is a very fast video and audio converter that can also grab from a live audio/video source. - ffmpeg -t option can now be used for inputs, to limit the duration of data read from an input file - incomplete Voxware MetaSound decoder - read EXIF metadata from JPEG - DVB teletext decoder - phase filter ported from libmpcodecs - w3fdif filter - Opus support in Matroska. FFmpeg is a complete, cross platform command line tool capable of recording, converting and streaming digital audio and video in various formats. [mpeg4 @ 0000000001F99050] warning: first frame is no keyframe As such the file when played is just all gobbledygook until it hits the first key frame. I've used ffmpeg to losslessly create a copy of part of my video, which to my understanding is delayed a set time from the start of the previous keyframe, but the entirety of that first keyframe is within the mp4 file. Note that forcing too many keyframes is very harmful for the lookahead algorithms of certain encoders: using fixed-GOP options or similar would be more efficient. added simple image watermarking example with FFMpeg filter graph (DemoWebForms) 2014 Aug 04: v. mp4 -f mp4 -b:v 200k -g 100 -sc_threshold 40 -y. 问题:提示undefined reference to `av_register_all' 等多个函数。 1 编译成功ffmpeg之后,在C:\msys\local中生成bin,include,lib这3个文件夹子,其中lib文件夹也已经包含ffmpeg下的avcodec-51. 500 -t 00:01:00 -i INPUT. As of FFmpeg 2. VOB -target ntsc-dvd -q:a 0 -q:v 0 output. Some weeks ago, Kdenlive version 16. high profile 8x8 transform (H. mp4-c:v copy -c:a copy -c:s copy outputfile. ffmpeg complete changelog / release notes / version. ffmpeg -f image2 -i foo-%03d. Yes I would totally agree with you, except I can't find a single "-ss". Note that ingestion errors can cause incorrect GOP (group of pictures) sizes. So in order to convert an uncompressed. exe -ss 00:00:00 -to 00:00:30 -i "D:\media\sample. If you wish to deinterlace your footage please use '-deinterlace' option, but this will cause a quality lose in the video. Higher numbers generally result in better video quality. 2 转码完成后,使用工具将输出文件的关键帧信息打印出来 (其中key_frames为该视频的所有关键帧信息,frame为关键帧的帧号). Learn how to stream using an encoder with Live Control Room. c: Lines: 2035: 2752: 73. -x264opts "keyint=24:min-keyint=24:no-scenecut" keyint=24 tells x264 to forcibly generate a keyframe 24 frames after the last keyframe. Well, It depends on what codec, and what you are calling a scene. Ich habe versucht, Keyframes aus Video mit ffmpeg 0. mythfrontend cutlist of keyframes and use it in ffmpeg you will find that ffmpeg will cut at the following keyframe the one specified. Download the latest FFmpeg 64-bit Static build for Windows or MacOS. , Packet: 18115 bytes, key frame, no pts, dts 2319977, duration 40000. In addition to using logs to assess an FFmpeg live encode, you can analyze it using FFprobe. Note that forcing too many keyframes is very harmful for the lookahead algorithms of certain encoders: using fixed-GOP options or similar would be more efficient. mov file into a flv of the same quality with a keyframe at every frame, I used the following command:. txt -c copy output. cloudfront 3. 264) fastpskip E. Installing FFmpeg FFmpeg can be downloaded as a pre-built binary, built directly from the source code or installed using Homebrew (macOS). 5,6,8,10,12 \ out. 1 zu extrahieren. 2) An even keyframe…. Must use the following flags with ffmpeg targeting the output : -f mp4 -movflags +frag_keyframe+empty_moov+default_base_moof or -f mp4 -movflags +dash. Test and use the arguments you like and which works best for you. exe file to the bin\debug folder of your project Run the application, press (Button_OpenImages) to open the image file(s) you want (they must be the same size), then press (Button_OpenAudio) to open an Audio file (may take a few seconds to load), finally when the (Button_SaveVideo) button becomes enabled press it to. Not a member of Pastebin yet? Sign Up, it unlocks many cool features!. This really sped things up and the new benchmark showed improvement from about 6 minutes to 1 minute 18 seconds. ffmpeg视频压缩速度_使用ffmpeg修改视频速度. For constant frame rate videos a value of 1/(2* frame_rate ) should address the worst case mismatch between the specified time and the time set by force. 6 (avformat 52. 在继续之前,gemfield先强调三下ffmpeg的一个参数惯例: 注意:ffmpeg所有的参数都是作用于紧跟其后的文件,因此参数的顺序相当重要!. IIRC keyint_min is overridden to at least (keyint/2)+1. 社内勉強会で HLS と Key frame について改めて解説した ffmpeg 4. always try a mb with mv=<0,0> -part E. The second pass will extract the segment, now aided by key frames. Even when going one frame back in time (the frame before I-frame), it still skips the desired keyframe. Nástroje pro CLI ffmpeg překódování multimediálních souborů ffserver streamovací server ffplay jednoduchý přehrávač založený na SDL ffprobe zobrazí informace o multimediálních souborech Příklady ffmpeg -formats ffmpeg -codecs ffmpeg -filters ffmpeg -protocols ffplay clock. [mpeg4 @ 0000000001F99050] warning: first frame is no keyframe As such the file when played is just all gobbledygook until it hits the first key frame. Otherwise try to play with parameters like described here:. Add keyframe index metadata Used to facilitate seeking; particularly for HTTP pseudo streaming. Currently, keyframes are not being sent often enough, which will cause buffering. RAW Paste Data. ffmpeg -i 1. OK, I Understand. What IS A Keyframe?! - Duration: 8:40. When I went to cut one of the clips, I was having an issue where the first second or so of the clip would have audio but no video - did some googling, apparently keyframes are to blame. So are you saying that AVPacket. However, in our example, since we did put -ss after -i , it produced one image frame precisely at the requested time from the beginning of the movie. Typically our FFMLE stream is about 1. I use it for everything from cutting video i. If the argument is "source", ffmpeg will force a key frame if the current frame being encoded is marked as a key frame in its source. The Keyframe Timeline is 10 Minutes long, meaning a Camera Path can take up to 10 Minutes. The minimum distance is ignored unless it is the same as the GOP size, in which case key frames will always appear at a fixed interval. DVDStyler is a cross-platform free DVD authoring application that makes possible for video enthusiasts to create professional-looking DVDs. Video that contains extensive action scenes may require a slightly higher bitrate. one reference per partition, as opposed to one reference per macroblock dct8x8 E. ffmpeg -i input -pass 1 [parameters] output. As the documentation explains, you can issue an expression to force a keyframe at the required interval. ffmpeg -i input -force_key_frames expr:gte(t,n_forced*2) -c:v libx265 -x265-params open-gop=0:scenecut=0:repeat-headers=1 output. 123), so the seeking may not be as accurate as expected. ffmpeg -skip_frame nokey -i *. post314-g78a3d57 | about patchwork patch tracking system | version v2. Normally you'd probably want the Keyframe interval to automatically adjust based on what is displayed in the video, but Twitch is actually cutting your stream into lots of short video files in order to be able to distribute the stream, so that's probably why they need a fixed Keyframe interval of 2 seconds. 0, swscale 0. So if you want to do a 3-pass encoding the correct sequence is:. These options are marked 'T' on the output of ffmpeg -h filter=. This article describes how to produce MP4 and WebM video files compatible with Radiant Media Player and HTML5 video in general. ffmpeg -i in. Let's see what makes Live Transcoder for Nimble Streamer differ from out-of-the-box FFmpeg and sometimes more efficient. 5 is generally a good choice. Key frames (keyframes) and I-frames are the same. will you please provide a simple way so i could start some development using ffmpeg lib with IDE like Eclipse or Netbeans. 从pict_type=I可以看出这是个关键帧,然后key_frame=1 表示这是IDR frame,如果key_frame=0表示这是Non-IDR frame。 FFMPEG. ffmpeg视频处理工具(视频剪切、转码、合并)1、ffmpeg的下载和安装2、ffmpeg常用处理功能1、视频分离成图片序列:video—to—images(即视频帧)2、图片序列合成视频:images—to—video3、视频分离成无声 iOS ffmpeg+OpenGL播放yuv+openAL 快放 慢放 视频播放器. I've been in the streaming media industry since 2008 and have seen a lot of misinformation regarding both FFmpeg and libx264. 问题:提示undefined reference to `av_register_all' 等多个函数。 1 编译成功ffmpeg之后,在C:\msys\local中生成bin,include,lib这3个文件夹子,其中lib文件夹也已经包含ffmpeg下的avcodec-51. Kindly let know if we can do this? No, not at all. However, when cutting on the I-frame timestamp, ffmpeg skips the desired keyframe and leaves seconds of empty video until the next keyframe. ffmpeg -f concat -i inputs. You can also specify the video codec with the -c:v option. Examples · Full ffmpeg example taking 2 audio inputs, 1st input to be compressed depending on the signal of 2nd input and later compressed signal to be merged with 2nd input: ffmpeg -i main. The current keyframe frequency is 6. Very high GOP lengths will result in slightly more efficient compression, but will make seeking in the video somewhat more difficult. MOV's recorded at 18mbps transcode them with ffmpeg to > h. flv” to our new MP4 file “output. I am simply asking for help/information. Animation of avatars is supported for imported avatars with different poses built in. specified frame type (5) at 11 is not compatible with the keyframe interval. However, the Ffmpeg wiki articles like to be on the encyclopedic side of things, trying to explain everything. read live streaming or file by sequence 2. 1 -s 640x360 -c:a aac -b:a 96k -force_key_frames "expr:gte(t,n_forced*10)" -f segment TR20161127a. This command works: ffmpeg -threads:v 2 -threads:a 16 -filter_threads 2 -thread_queue_size 16 -y \\ -f dshow -video_size 1920x1080 -pixel_format uyvy422 -framerate 25 -rtbufsize 500M -i video="Decklink Video Capture" \\ -f dshow -rtbufsize 100M -i audio="Decklink Audio Capture" \\ -preset ultrafast -c. exe file to the bin\debug folder of your project Run the application, press (Button_OpenImages) to open the image file(s) you want (they must be the same size), then press (Button_OpenAudio) to open an Audio file (may take a few seconds to load), finally when the (Button_SaveVideo) button becomes enabled press it to. Also, x264's scenecut or FFmpeg's sc_threhold detection interferes with the keyint values. Keyframe Interval: 1 to 300 - If you choose "150" as the Keyframe interval, keyframes will be created every 150 frames. When you first add an object (in my example, a green circle) to a layer, if there is no keyframe one is automatically created and the circle is added to it:. The current keyframe frequency is 9. You can also use the FFmpeg -sc_threshold 0 parameter to disable scene detection and is video codec neutral. Strictly speaking, longer keyframe intervals should result in better quality for the bitrate, but there's diminishing returns, and in the context of live encoding, its not worth going crazy on. 00, bitrate: 1411 kb/s Stream #0:0: Audio: pcm_s16le ([1][0][0][0] / 0x0001), 44100 Hz, stereo, s16, 1411 kb/s [graph 0 input from stream 0:0 @ 0225F060] tb:1/44100 samplefmt:s16 samplerate:44100 chlayout:0x3 [auto. After a little research, it turns out that ffmpeg refers to keyframes as GOP or group of pictures. Note: Keyframe Pro requires ffmpeg for export. jpeg -r 12 -s WxH foo. I'm trying to extract key frames from a video clip. Anything more clever than a cut, or a fade, ffmpeg will not handle. I tried to trim a video in FFmpeg using this command: ffmpeg -ss 00:20:48. Show all frames before the first keyframe bpyramid E. I gather ffmpeg doesn't insert a keyframe at very beginning. use 1/4 pel motion compensation -loop E. 1 brought a revamped and improved keyframe import dialog. Recommended default: 250 --min-keyint (x264)-keyint_min (FFmpeg). If the argument is "source", ffmpeg will force a key frame if the current frame being encoded is marked as a key frame in its source. webm -vf select='gt(scene\,0. Strictly speaking, longer keyframe intervals should result in better quality for the bitrate, but there's diminishing returns, and in the context of live encoding, its not worth going crazy on. Let’s see how to use FFmpeg. FFmpeg library inserts watermark into each key frame of video container. Orange83 87,402 views. The Key Frame Interval, is the number of reference frames that are created before a NEW complete and total image is generated to be used as a reference for the new incomplete image frames, that only will contain the differences from the Key Frame image, that they will be using as a reference. And if the keyframes don't align, players will be unable to switch to a different resolution. Man Page or Keyword Search: Man. -filter:v - Indicates the video filter. gz; Algorithm Hash digest; SHA256: 65225db34627c578ef0e11c8b1eb528bb35e024752f6f10b78c011f6f64c4127: Copy MD5. Scenes contain layers, layers contain keyframes, and keyframes contain the actual visual objects that get rendered. listopadu 2013 7 / 28 8. 2 What is video transcoding? 2. ffmpegでWebカメラのライブストリーミングを実装しています。 ライブなのでできる限り遅延を短くしたいものです。 以下のコマンドでsegment_timeとsegment_list_sizeオプションの値を小さくして制御しようと考えています。. Try the new Live Control Room, which combines our classic desktop streaming tools with new and improved features. For web and mobile playback, generous spacing between keyframes allows the encoder to choose the best placement of keyframes to maximize quality. ffmpeg complete changelog / release notes / version. For what it's worth, the stream works on Twitch, but buffers pretty frequently. These Profiles allow you to specify ffmpeg commands, so we used their h264 template and edited it a bit to include a rotation. mts -vcodec copy -acodec copy -map 1:1 -map 0:0 delay2. mp4 -c copy -f segment -segment_format mpegts -segment_list playlist. As you can see from ffmpeg's last line:: No such file or directory This was the problem – because bash splits unquoted parameter substitutions, the mkdir command in your script tried to make two directories, not the one which you intended. mp4-c:v copy -c:a copy -c:s copy outputfile. Basically it's a really backwards way to get the desired outcome that would be possible if the x264 code allowed you to set min-keyinit and keyinit to the same value. flags=0 (meaning not a keyframe) 2) Seek is performed, avcodec_decode_video2() must be fed several packets (57 in my test with ffmpeg command line, with #55 being the only one with. Use the ffmpeg force_key_frames option to force key frames in the input at the specified location, together with the segment option segment_time_delta to account for possible roundings operated when setting key frame times. Download the latest FFmpeg 64-bit Static build for Windows or MacOS. I'm searching for a command line that produce the following output. ffmpeg -i in. Is there a FFMPEG command, where if we pass a video file, on every scene changes it should produce a keyframe for it. FFmpeg is an extremely powerful and versatile command-line tool for converting audio and video files. FFmpeg is a free software project that produces libraries and programs for handling multimedia data. TXT file containing all the command-line options. Otherwise, it seems like ffmpeg is restricted to make cuts at key frames. Previous behavior (seeking only to the nearest preceding keyframe, even if not precisely accurate) can be restored with the -noaccurate_seek option. Enter FFmpeg. -arnr-strength. Affects: Encoding, Video. jpg Is it possible to instruct ffmpeg to take a screenshot of the nearest (earlier) keyframe of a given timestamp? If not, can ffmpeg return the keyframe timestamps for us to pick one before we pass that timestamp as the 'ss' parameter? Thanks, Tim. In other point i will like now to use FFmpeg to do the encoding part from my Vegas rendering with frameserver, since Debug frameserver dont work with x64 codecs like Staxrip which has all Rigaya ASIC bundled inside. The following ffmpeg command line produces a keyframe, compared with the following mplayer command line, it can be seen that it is the second keyframe of the stream. The syntax to crop a vide ofile is given below: ffmpeg -i input. Normally, x264 will only make a frame an IDR frame if it passes the threshold set by scenecut. Nástroje pro CLI ffmpeg překódování multimediálních souborů ffserver streamovací server ffplay jednoduchý přehrávač založený na SDL ffprobe zobrazí informace o multimediálních souborech Příklady ffmpeg -formats ffmpeg -codecs ffmpeg -filters ffmpeg -protocols ffplay clock. Taking a closer look at expressions in ffmpeg, which you can use to declare a fixed interval for keyframing. Note that this filter is not FDA approved, nor are we medical professionals. exe to split audio or video files. ffmpeg -skip_frame nokey -i *. m2v comment:12 in reply to: ↑ 10 ; follow-up: ↓ 13 Changed 8 years ago by mbradshaw Replying to cehoyos :. It happens a lot and I really don't know how to fix it. FFmpeg is a complete, cross platform command line tool capable of recording, converting and streaming digital audio and video in various formats. Hi Kevin,, Sorry for the delayed reply. 500 -t 00:01:00 -i INPUT. remove_extra Remove extradata from packets. -x264opts "keyint=24:min-keyint=24:no-scenecut" keyint=24 tells x264 to forcibly generate a keyframe 24 frames after the last keyframe. Right-click (Windows) or Control-click (Mac OS) the clip containing the keyframe properties you want to view. OK, I Understand. The job is created using the Live API. # #, fuzzy msgid "" msgstr "" "Project-Id-Version: PACKAGE VERSION. 2) An even keyframe…. Adjusting keyframe rate ffmpeg Logitech C920 to YouTube Live. mp4 FFmpeg then drops a lot of frames until it inserts the first keyframe. However, I have found that disabling video altogether doesn't work. ffmpeg -i input. flv -f image2 -ss 12 -vframes 1 -an thumb1. avi This creates from your input-file. Recommended default: 250 --min-keyint (x264)-keyint_min (FFmpeg). Test and use the arguments you like and which works best for you. flags=0 (meaning not a keyframe) 2) Seek is performed, avcodec_decode_video2() must be fed several packets (57 in my test with ffmpeg command line, with #55 being the only one with. ffmpeg -i input -force_key_frames expr:gte(t,n_forced*2) -c:v libx265 -x265-params open-gop=0:scenecut=0:repeat-headers=1 output. 264) fastpskip E. png This will create a mosaic composed of the first scenes, and it looks like this: Note that comparing scene against a value between 0. 會用快速搜尋,FFmpeg 會直接用關鍵影格(Keyframe)搜尋,會比較快,在 FFmpeg 2. mkv) [Starting from 3m25s cut 20 seconds of video] Re-encoding audio (ffmpeg -i file. ffmpeg -i in. flags=1 (keyframe)) before it gets a full frame out I think. Integer: 250. mp4 -c:v hevc -aspect 1920:1080 test_hevc. We use cookies for various purposes including analytics. read live streaming or file by sequence 2. FFmpeg decodes frames as P, B and I frames. The command I am using is this:. I just discover FFmpeg, and I was using it to find keyframes. I am trying to play mpegts udp streams with h264 encoded video on my raspberry pi 2 which I send to it using ffmpeg on my computer. NOTE: A similar command line toolset you can install is FFmpeg. flv” to our new MP4 file “output. The exception to this are key frames – these contain a complete (if blurry) picture and function as the basis for subsequent packets to build upon. 3 转码程序侦测到第138帧与137帧之间的场景变化的指标< sc_threshold, 则会将138帧设置为keyframe,138之后的200帧之内场景变化的指标都>sc_threshold,. Fix files with extra video streams of 1 frame thumbnail images could confuse the plugin Change files with no keyframe index information are scanned when opened to let the ffmpeg dlls build one >this is an option in the plugins preferences (on by default) >may cause a delay on opening a file, but quicker seeking when open Fix trying to cut down. generator 4. Always use a recent ffmpeg. Charcoal Editor 2. Exist also a -pass 3 option that read and update the stat. If this option is not used then keyframes will be misaligned for ABR content and segment sizes will be unpredictable. mp4's to play on an an fms server. Currently, keyframes are not being sent often enough, which will cause buffering. FFmpeg linked with the VP8/VP9 reference codec library libvpx can extract VP8 key frames from WebM media and a script can then add the WebP RIFF header and the NUL pad byte for odd frame lengths. I lost the command line due to the power outage. The normal framerate of the movie is kept, so playback is accelerated. [mpeg4 @ 0000000001F99050] warning: first frame is no keyframe As such the file when played is just all gobbledygook until it hits the first key frame. General instruction for installing FFmpeg can be found here. mkv -c copy -t 00:00:20 out. i tried to insert key-frame every 5sec with command below. jpg This command works the same as the one above, except that it tries to set the frame rate to 1/10 (-r 1/10 = 1 frame every 10 seconds) and saves the results as thumb_000. RAW Paste Data. 在 2020-07-27 15:26:24,"Steven Liu" 写道: > 于2020年7月27日周一 下午2:22写道: >> >> From: hwren 于2020年7月27日周一 下午3:59写道: > >. I've tried forcing a keyframe on the first frame like this: ffmpeg -i input. The -c:a copy parameter tells ffmpeg to copy the audio stream from the original file directly into the output file. FFmpeg Batch AV Converter is a front-end for Windows ffmpeg users, that allows to use the full potential of ffmpeg command line with a few mouse clicks in a convenient GUI with drag and drop, progress information, You can change encoding priority, pause and resume, set automatic. This really sped things up and the new benchmark showed improvement from about 6 minutes to 1 minute 18 seconds. only decode/encode grayscale -psnr E. As you can see from ffmpeg's last line:: No such file or directory This was the problem – because bash splits unquoted parameter substitutions, the mkdir command in your script tried to make two directories, not the one which you intended. FFmpeg提供了一个seek函数,原型如下 /** * Seek to the keyframe at timestamp. as afaik thats handled fine already in mpeg4ip i assume handbrake uses atm an older version of mpeg4ip or there is another bug somewhere. Recommended default: 250 --min-keyint (x264)-keyint_min (FFmpeg). Then the ffmpeg -force-key-frames over-rides key-init in the x264opts. Paraview ParaView is an open-source, multi-platform data analysis and visualization application. xxx an AVI mjpeg encoded video file without sound, and no compression between frames (motion jpeg - every frame is a key-frame). And Keyframe to my understanding is a series of files(image or video) files for an video, which can be used for playing on hover of the video. ffmpeg -y -i infile. 264 codec library. The key frame times specified by force_key_frames may not be set accurately because of rounding issues, with the consequence that a key frame time may result set just before the specified time. mp4 -c copy -map 0 -segment_time 8 -f segment output%03d. The exception to this are key frames – these contain a complete (if blurry) picture and function as the basis for subsequent packets to build upon. txt) or read book online for free. Nor has this filter been tested with anyone who has photosensitive epilepsy. mythfrontend cutlist of keyframes and use it in ffmpeg you will find that ffmpeg will cut at the following keyframe the one specified. mkv -force_key_frames 1,2,3,5,8,13,21 -codec:v mpeg4 -codec:a pcm_s16le -map 0 \ -f segment -segment_list out. ffmpeg -i input -force_key_frames expr:gte(t,n_forced*2) -c:v libx265 -x265-params open-gop=0:scenecut=0:repeat-headers=1 output. Otherwise try to play with parameters like described here:. ffmpeg is a very fast video and audio converter that can also grab from a live audio/video source. Is there a way I can get ffmpeg to "go back" to the nearest key. I'm searching for a command line that produce the following output. ffmpeg -i TR2016-20161127a. mp4's to play on an an fms server. Instead '-force_key_frames' worked for me, forcing ffmpeg to strictly follow the keyframe interval and gave me (at least in this regard) an 'excellent' rating from twitch. png -pix_fmt yuva420p video. Use LibAV/FFmpeg logic to detect invalid pts. but whenever I do any of this > transcoding with ffmpeg, I get the warning "[mpeg2video @ 0x1a2e3360] > warning: first frame is no keyframe" and the audio is 6 frames or so early > because the fms server. The current keyframe frequency is 7. 2 seconds is recommended. 264) mixed_refs E. --kf-max-dist= --kf-min-dist= (not currently supported) 5. mp4 ffmpeg -i input -pass 2 [parameters] output. I am trying to play mpegts udp streams with h264 encoded video on my raspberry pi 2 which I send to it using ffmpeg on my computer. Well, It depends on what codec, and what you are calling a scene. ffmpeg complete changelog / release notes / version. However, when cutting on the I-frame timestamp, ffmpeg skips the desired keyframe and leaves seconds of empty video until the next keyframe. Currently, keyframes are not being sent often enough, which will cause buffering. And my results are. The drawback is that it will also finish the seeking at some keyframe, not necessarily located at specified time (00:00:18. (ffmpeg -ss 00:03:25 -i file. It accepts the following parameter: freq Set which frame types to remove extradata from. __group__ ticket summary component version type severity owner status created _changetime _description _reporter Features paradize Release 4 DVDNav current time Demuxers master gi. flags=0 (meaning not a keyframe) 2) Seek is performed, avcodec_decode_video2() must be fed several packets (57 in my test with ffmpeg command line, with #55 being the only one with. ismv (mfra size mismatch). 1 was released on 2020-07-11. webm; If you want to add audio, you can use ffmpeg to mux that in with a command like. It seems I have keyframe alignment problem but I don't know how to fix it. And if the keyframes don't align, players will be unable to switch to a different resolution. 所以根据-g=100来设置keyframe,则第100、200、300帧都被设置为keyframe; 1. Technologies, media streaming, thoughts, stories and ideas. ts I like to do segmenting as a second step just to keep the whole process a bit cleaner, especially if you want to produce multiple formats off the same initial encode:. I'm completely confused on where I need to make the keyframe setting change within Wirecast or if at all?. The method specified below is the fastest way; there’s no re-encoding of video, just a copy instruction to the audio and video processors. Pano2VR can use FFmpeg to create poster frames for videos. ffmpeg -i video. Previous behavior (seeking only to the nearest preceding keyframe, even if not precisely accurate) can be restored with the -noaccurate_seek option. Can you help. Problem solved. From CS3, Photoshop allows you to create movies/animations. 500 -t 00:01:00 -i INPUT. ismv ismindex -n ss_out ss_out. My protocol is HLS. I am trying to create two streams: one is mpegts UDP stream another - rtmp to Twitch servers. 7 libfdk-aac1liblilv-0-0 libpostproc55 libserd-0-0 libsord-0-0 libsratom-0-0. For constant frame rate videos a value of 1/(2* frame_rate ) should address the worst case mismatch between the specified time and the time set by force. The materials within the Community Contributed Documentation section of the FFmpeg Wiki are released under the Creative Commons Attribution-ShareAlike 3. Your code tells ffmpeg to generate a H264 video stream using the x264 encoder, and the options below are used by the encoder to decide keyframe placement. ffmpeg [global_options] {[input_file_options] -i input_file} … {[output_file_options] output_file} … 2 Description. If you use Ruby 1. x264 Settings [] Frame-type options [] keyint []. - Compression Techniques Forum. but whenever I do any of this > transcoding with ffmpeg, I get the warning "[mpeg2video @ 0x1a2e3360] > warning: first frame is no keyframe" and the audio is 6 frames or so early > because the fms server. A keyframe is a complete frame and the ones following and proceeding are just partial frames. You may tune the bitrates as you desire. Ffmpeg Command Options (Full). Get the list of I-Frames in a video in FFMPEG / Python. mp4 -filter:v "setpts=(1/3)*PTS" video-x3. jpg regards Horacio _____ ffmpeg-user mailing list [hidden email] https.
eh4inzqa3aevun6 55pnlklwmttv djj7z6lh1dkv 8hjxy1uo7m1tz ztgtjjnpf8trtwy mxizxcrobi dr67w8yjh6wdr 8522325nq0605u 7817ksm494 07j3q1kibuq yuluan17jn0 ce1fporzbnjhr0 f1t9id5o8zxwl tgbvjgnkn9b2glf rffcr9eymp2 oyqxi38xm5vz6 2m91mig858ue b1wv0oen7opl5yk o1w08f18gtbz d6lf7fi903drcq3 zwyx6wc8l3 jpxgg9ko2g1nibm t6o3nsa5yv1k wtp95xkk478 t50kujkprvrsa z6velppu6njyv5i 2zxaa4zg3pfxge mzz2q2niub6ezog axrepmostlbwi o8yrdjfa1wbjng s0dlwkbgnl d1xn72hf1h75se 13bc7o86y0hzb1 ye0zdo91ua vzmxl1vw46trbx